Questão ffmpeg mesclar vários arquivos de áudio em um único arquivo de áudio com android


Eu estou usando o comando abaixo para mesclar vários arquivos de áudio:

String s="-i "+mFileTemp.getPath()+" -i "+mFileTemp2.getPath()+" -i "+mFileTemp3.getPath()+" -filter_complex [0:0][1:0][2:0]concat=n=3:v=0:a=1[out] -map [out] "+originalFile.getPath();

Onde mFileTemp, mFileTemp2, mFileTemp3 são o caminho para a entrada do arquivo de áudio, em que originalFile é o caminho do arquivo de áudio de saída.

Aqui estou anexando como sua passagem após a divisão:

ffmpeg passando argumento depois de dividir

Obtendo o seguinte erro:

ffmpeg version n3.0.1 Copyright (c) 2000-2016 the FFmpeg developers
built with gcc 4.8 (GCC)
configuration: --target-os=linux --cross-
prefix=/home/vagrant/SourceCode/ffmpeg-android/toolchain-
android/bin/arm-linux-androideabi- --arch=arm --cpu=cortex-a8 --
enable-runtime-cpudetect --sysroot=/home/vagrant/SourceCode/ffmpeg-
android/toolchain-android/sysroot --enable-pic --enable-libx264 --
enable-libass --enable-libfreetype --enable-libfribidi --enable-
libmp3lame --enable-fontconfig --enable-pthreads --disable-debug --
disable-ffserver --enable-version3 --enable-hardcoded-tables --
disable-ffplay --disable-ffprobe --enable-gpl --enable-yasm --disable-
doc --disable-shared --enable-static --pkg-
config=/home/vagrant/SourceCode/ffmpeg-android/ffmpeg-pkg-config --
prefix=/home/vagrant/SourceCode/ffmpeg-android/build/armeabi-v7a --
extra-cflags='-I/home/vagrant/SourceCode/ffmpeg-android/toolchain-
android/include -U_FORTIFY_SOURCE -D_FORTIFY_SOURCE=2 -fno-strict-
overflow -fstack-protector-all' --extra-ldflags='-
L/home/vagrant/SourceCode/ffmpeg-android/toolchain-android/lib -Wl,-
z,relro -Wl,-z,now -pie' --extra-libs='-lpng -lexpat -lm' --extra-
cxxflags=
libavutil      55. 17.103 / 55. 17.103
libavcodec     57. 24.102 / 57. 24.102
libavformat    57. 25.100 / 57. 25.100
libavdevice    57.  0.101 / 57.  0.101
libavfilter     6. 31.100 /  6. 31.100
libswscale      4.  0.100 /  4.  0.100
libswresample   2.  0.101 /  2.  0.101
libpostproc    54.  0.100 / 54.  0.100
Guessed Channel Layout for  Input Stream #0.0 : stereo
Input #0, wav, from '/storage/emulated/0/AudioRecorder/cello.wav':
Duration: 00:00:03.75, bitrate: 1411 kb/s
Stream #0:0: Audio: pcm_s16le ([1][0][0][0] / 0x0001), 44100 Hz, 2
channels, s16, 1411 kb/s
Guessed Channel Layout for  Input Stream #1.0 : stereo
Input #1, wav, from '/storage/emulated/0/AudioRecorder/strings.wav':
Duration: 00:00:05.00, bitrate: 1411 kb/s
Stream #1:0: Audio: pcm_s16le ([1][0][0][0] / 0x0001), 44100 Hz, 2
channels, s16, 1411 kb/s
Guessed Channel Layout for  Input Stream #2.0 : stereo
Input #2, wav, from
'/storage/emulated/0/AudioRecorder/ChillingMusic.wav':
Duration: 00:00:27.41, bitrate: 1411 kb/s
Stream #2:0: Audio: pcm_s16le ([1][0][0][0] / 0x0001), 44100 Hz, 2
channels, s16, 1411 kb/s
[AVFilterGraph @ 0xf6e49040] No such filter: ''
Error initializing complex filters.
Invalid argument

Por favor alguém me ajuda o que estou fazendo errado? Esta pergunta pode ser duplicada, mas não encontro nenhuma boa solução para o post.


1


origem


Suas opções de concat são confusas. Você tem 3 entradas com 1 fluxo cada, mas suas etiquetas de entrada para concat seriam para 3 entradas com 3 fluxos cada. Você precisa adicionar v=0 para o seu concat porque o padrão é v=1, mas você não tem nenhum fluxo de vídeo. Sua concat tem 3 rótulos de saída, mas suponho que você queira um. Quanto a No such filter: '' Eu estou supondo que é devido à divisão incorreta, citando ou implementação do comando no script e não um problema com o ffmpeg comando em si. Obtenha o comando trabalhando primeiro antes de tentar adicioná-lo ao seu script. - LordNeckbeard
@ LordNeckbeard: Obrigado pela resposta. Eu encontrei a solução: String s = "- i" + mFileTemp.getPath () + "-i" + mFileTemp2.getPath () + "-i" + mFileTemp3.getPath () + "-filter_complex [0: 0] [ 1: 0] [2: 0] concat = n = 3: v = 0: a = 1 [out] -map [out] "+ originalFile.getPath (); isso funciona para mim - Myself


Respostas:


Eu encontrei a solução para a questão acima. Eu já tinha editado na pergunta,

        String s="-i "+mFileTemp.getPath()+" -i "+mFileTemp2.getPath()+" -i "+mFileTemp3.getPath()+" -filter_complex [0:0][1:0][2:0]concat=n=3:v=0:a=1[out] -map [out] "+originalFile.getPath();

        String[] cmd= s.split(" ");

e passe este array de string para:

         ffmpeg.execute(cmd...)

Observe: Eu me referi a http://writingminds.github.io/ffmpeg-android-java/. para integrar com android


2